Tuesday
2017-10-17
6:42 AM
 
Vfx Studio
 
Welcome Guest | RSSHome | File Catalog | Sign Up | Log In
Site menu
Section categories
Adobe CS5-CS6 [7]
Software [132]
Plug-ins [51]
Antivirus [20]
Windows [10]
PC Tools [28]
System [34]
Drivers [61]
Footages [58]
Tutorials [5]
3D Models [8]
Vue 9/10 [0]
NVIDIA [2]
Pictures [2]
Books [19]
Movies [2]
WEB [8]
Archmodels [1]
VIDEOCOPILOT [6]
Evermotion Shaders, Textures [5]
Games [24]
MacOS Soft [13]
Unity [2]
Statistics

Total online: 1
Guests: 1
Users: 0
[ GEO-UA] L4D2
Food 3D Models
Youtube Downloader

How to download any video from YouTube [ Easy and Fastest method ]

 

Cunnilingus
Bitcoin
visitors
Home » Files » Movies

Deadpool (2016) HDTS x264
[ · Download from mirror (1.44 GB) ] 2016-03-07, 5:52 PM

Format : Matroska
Format version : Version 4 / Version 2
File size : 1.39 GiB
Duration : 1h 36mn
Overall bit rate : 2 068 Kbps
Encoded date : UTC 2016-02-15 16:22:34
Writing application : mkvmerge v8.8.0 ('Wind at my back') 32bit
Writing library : libebml v1.3.3 + libmatroska v1.4.4

 


Video
ID : 1
Format : MPEG-4 Visual
Format profile : Simple@L3
Format settings, BVOP : No
Format settings, QPel : No
Format settings, GMC : No warppoints
Format settings, Matrix : Default (H.263)
Codec ID : V_MS/VFW/FOURCC / XVID
Codec ID/Hint : XviD
Duration : 1h 36mn
Bit rate : 1 835 Kbps
Width : 720 pixels
Height : 404 pixels
Display aspect ratio : 16:9
Frame rate mode : Constant
Frame rate : 23.962 fps
Original frame rate : 23.000 fps
Color space : YUV
Chroma subsampling : 4:2:0
Bit depth : 8 bits
Scan type : Progressive
Compression mode : Lossy
Bits/(Pixel*Frame) : 0.263
Stream size : 1.24 GiB (89%)
Writing library : XviD 1.2.1 (UTC 2008-12-04)
Default : Yes
Forced : No

Audio
ID : 2
Format : AC-3
Format/Info : Audio Coding 3
Mode extension : CM (complete main)
Format settings, Endianness : Big
Codec ID : A_AC3
Duration : 1h 36mn
Bit rate mode : Constant
Bit rate : 192 Kbps
Channel(s) : 2 channels
Channel positions : Front: L R
Sampling rate : 48.0 KHz
Bit depth : 16 bits
Compression mode : Lossy
Stream size : 132 MiB (9%)
Default : Yes
Forced : No

 

Category: Movies | Added by: gelamac74 | Tags: Deadpool (2016), Deadpool 2016, Deadpool download, Deadpool (2016) HDTS x264
Views: 296 | Downloads: 62 | Rating: 0.0/0
Total comments: 0
Only registered users can add comments.
[ Sign Up | Log In ]
Log In
Search
Site friends
  • Best VFX Software
  • Zombie Movies
  • Zombie Games
  • Steel Ocean
  • Best Soundtracks