Monday, 2017-12-11, 2:10 PM Welcome Guest

Vfx Studio

Site menu
Section categories
Adobe CS5-CS6 [8]
Software [132]
Plug-ins [51]
Antivirus [20]
Windows [10]
PC Tools [28]
System [34]
Drivers [61]
Footages [58]
Tutorials [5]
3D Models [8]
Vue 9/10 [0]
NVIDIA [2]
Pictures [2]
Books [19]
Movies [2]
WEB [8]
Archmodels [1]
VIDEOCOPILOT [6]
Evermotion Shaders, Textures [5]
Games [24]
MacOS Soft [13]
Unity [2]
Statistics

Total online: 1
Guests: 1
Users: 0
Home » Files » Movies

Zootopia 2016 HDCAM XVID
[ Download from this server (15.4Kb) · Download from mirror (1.43 GB) ] 2016-03-07, 5:33 PM

General
Complete name : Zootopia.2016.HDCAM.XVID.AC3.HQ.Hive-CM8.avi
Format : AVI
Format/Info : Audio Video Interleave
File size : 1.41 GiB
Duration : 1h 38mn
Overall bit rate : 2 063 Kbps
Writing application : Nandub v1.0rc2
Writing library : Nandub build 1853/release

Video
ID : 0
Format : MPEG-4 Visual
Format profile : Advanced Simple@L5
Format settings, BVOP : 2
Format settings, QPel : Yes
Format settings, GMC : No warppoints
Format settings, Matrix : Default (H.263)
Muxing mode : Packed bitstream
Codec ID : XVID
Codec ID/Hint : XviD
Duration : 1h 38mn
Bit rate : 1 800 Kbps
Width : 720 pixels
Height : 304 pixels
Display aspect ratio : 2.35:1
Frame rate : 29.970 fps
Color space : YUV
Chroma subsampling : 4:2:0
Bit depth : 8 bits
Scan type : Progressive
Compression mode : Lossy
Bits/(Pixel*Frame) : 0.274
Stream size : 1.23 GiB (87%)
Writing library : XviD 1.2.1 (UTC 2008-12-04)

Audio
ID : 1
Format : AC-3
Format/Info : Audio Coding 3
Mode extension : CM (complete main)
Format settings, Endianness : Big
Codec ID : 2000
Duration : 1h 36mn
Bit rate mode : Constant
Bit rate : 256 Kbps
Channel(s) : 2 channels
Channel positions : Front: L R
Sampling rate : 48.0 KHz
Bit depth : 16 bits
Compression mode : Lossy
Stream size : 177 MiB (12%)
Alignment : Split accross interleaves
Interleave, duration : 34 ms (1.02 video frame)
Interleave, preload duration : 500 ms

Category: Movies | Added by: gelamac74 | Tags: Download Zootopia 2016, Download Zootopia 2016 torrent, Zootopia 2016 HDCAM XVID
Views: 314 | Downloads: 89 | Rating: 0.0/0
Total comments: 0
Only registered users can add comments.
[ Sign Up | Log In ]
Log In
Search
Site friends
Unity
Copyright Vfx studio © 2017